Piekło / Inferno (...

[info] Tytuł: Inferno ================== Ocena: IMDB - 6.2/10 (64998), Filmweb - 6.3/10 (43340) Produkcja: Japonia, Turcja, USA, Węgry Gatunek: Thriller Czas trwania: 121 min. Premiera: 14 października 2016 (Polska), 12 października 2016 (świa...

pobierz torrent
 

Smoleńsk (2016) [P...

Info: Tytuł: Smoleńsk Ocena: IMDB - 1.1/10 (5242), Filmweb - 2.7/10 (17547) Produkcja: Polska Gatunek: Dramat Czas trwania: 115 min. Premiera: 09.09.2016 - Polska, 09.09.2016 - Świat Reżyseria: Antoni Krauze Scenariusz: Marcin Wolski, Maciej Paw...

pobierz torrent
 

Far Cry Primal - Ap...

Info: Ubisoft - producent Ubisoft - wydawca Ubisoft GmbH - wydawca PL Data premiery: 1 marca2016 - Świat 1 marca2016 - Polska Tryb gry: single player Gatunek: Akcji, FPP, sandbox, crafting, prehistoria. Opis: Far Cry Primal na komputerach...

pobierz torrent
Dragon Ball Z: Resurrection F / Dragon Ball Z: Fukkatsu no F (2015)  [1080p.BluRay.x264.DD5.1] [JAPAN] [ENG]

Dragon Ball Z: Resurrection F / Dragon Ball Z: Fukkatsu no F (2015) [1080p.BluRay.x264.DD5.1] [JAPAN] [ENG]


Kategoria: ANIME / ANIME

Gatunek:
Premiera:
Czas trwania:


Dodał: DuszekPL Data: 10-10-2015 Komentarze: 0
Rozmiar: 0.00 KB format: ANIME Seed: Peer:
Info Obsada Opis Szczegóły Zdjęcia/filmy
Aladyn1111

(29-09-2015)
Komentarze: 0
[info]

gatunek: Przygodowy, Anime
produkcja: Japonia
premiera: 30 marca 2015 (świat)
boxoffice: $61 768 190

[/info]
[opis]

Dwóch żołnierzy armii Frieza przybywa na Ziemię w poszukiwaniu Smoczych Kul. Pragną przywrócić do życia swojego przywódcę.


[/obsada]
[dane]

Video
ID                                       : 1
Format                                   : AVC
Format/Info                              : Advanced Video Codec
Format profile                           : High@L4.1
Format settings, CABAC                   : Yes
Format settings, ReFrames                : 4 frames
Codec ID                                 : V_MPEG4/ISO/AVC
Duration                                 : 1h 33mn
Bit rate                                 : 11.5 Mbps
Width                                    : 1 920 pixels
Height                                   : 1 080 pixels
Display aspect ratio                     : 16:9
Frame rate mode                          : Constant
Frame rate                               : 23.976 fps
Color space                              : YUV
Chroma subsampling                       : 4:2:0
Bit depth                                : 8 bits
Scan type                                : Progressive
Bits/(Pixel*Frame)                       : 0.231
Stream size                              : 7.35 GiB (90%)
Title                                    : Dragon.Ball.Z.Resurrection.F.2015.DUBBED.AND.JAPANESE.1080p.BluRay.x264.DD5.1-RARBG
Writing library                          : x264 core 144 r96 40bb568
Encoding settings                        : cabac=1 / ref=4 / deblock=1:-2:-2 / analyse=0x3:0x113 / me=umh / subme=7 / psy=1 / psy_rd=1.00:0.15 / mixed_ref=1 / me_range=16 / chroma_me=1 / trellis=1 / 8x8dct=1 / cqm=0 / deadzone=21,11 / fast_pskip=1 / chroma_qp_offset=-3 / threads=12 / lookahead_threads=3 / sliced_threads=0 / nr=0 / decimate=1 / interlaced=0 / bluray_compat=0 / constrained_intra=0 / bframes=5 / b_pyramid=2 / b_adapt=2 / b_bias=0 / direct=3 / weightb=1 / open_gop=0 / weightp=2 / keyint=250 / keyint_min=25 / scenecut=40 / intra_refresh=0 / rc_lookahead=50 / rc=abr / mbtree=1 / bitrate=11500 / ratetol=1.0 / qcomp=0.60 / qpmin=0 / qpmax=69 / qpstep=4 / vbv_maxrate=31250 / vbv_bufsize=31250 / nal_hrd=none / filler=0 / ip_ratio=1.40 / aq=1:0.60
Language                                 : English
Default                                  : Yes
Forced                                   : No

Audio #1
ID                                       : 2
Format                                   : AC-3
Format/Info                              : Audio Coding 3
Mode extension                           : CM (complete main)
Format settings, Endianness              : Big
Codec ID                                 : A_AC3
Duration                                 : 1h 33mn
Bit rate mode                            : Constant
Bit rate                                 : 640 Kbps
Channel(s)                               : 6 channels
Channel positions                        : Front: L C R, Side: L R, LFE
Sampling rate                            : 48.0 KHz
Compression mode                         : Lossy
Stream size                              : 430 MiB (5%)
Title                                    : Dragon.Ball.Z.Resurrection.F.2015.DUBBED.AND.JAPANESE.1080p.BluRay.x264.DD5.1-RARBG
Language                                 : Japanese
Default                                  : Yes
Forced                                   : No

Audio #2
ID                                       : 3
Format                                   : AC-3
Format/Info                              : Audio Coding 3
Mode extension                           : CM (complete main)
Format settings, Endianness              : Big
Codec ID                                 : A_AC3
Duration                                 : 1h 33mn
Bit rate mode                            : Constant
Bit rate                                 : 384 Kbps
Channel(s)                               : 6 channels
Channel positions                        : Front: L C R, Side: L R, LFE
Sampling rate                            : 48.0 KHz
Compression mode                         : Lossy
Stream size                              : 258 MiB (3%)
Title                                    : Dragon.Ball.Z.Resurrection.F.2015.DUBBED.AND.JAPANESE.1080p.BluRay.x264.DD5.1-RARBG
Language                                 : English
Default                                  : No
Forced                                   : No
[/dane]
LINKI:
Tylko zalogowani i posiadajacy ważne konto użytkownicy mogą ściągać za darmo z wszystkich serwisów!
Tylko zalogowani użytkownicy mają dostęp do linków
SCREENY:
                

Podziękowali:

Brak komentarzy

Zaloguj się aby skomentować

Pomocne

Kontakt
DMCA
Forum
Copyright © 2015 All rights reserved Best-Torrents.net | Designed by Best-Torrents.net Torrenty są własnością użytkowników. Administrator serwisu nie może ponieść konsekwencji za to co użytkownicy wstawiają, lub za to co czynią na stronie. Nie możesz używać tego serwisu do rozpowszechniania lub ściągania materiałów do których nie masz odpowiednich praw lub licencji. Użytkownicy odpowiedzialni są za przestrzeganie tych zasad. PolicyDMCA