Underworld: Wojny k...

[info] Tytuł: Underworld: Blood Wars Polski Tytuł: Underworld: Wojny krwi ================== Ocena: IMDB - 6.4/10 (11364), Filmweb - 6.3/10 (4250) Produkcja: USA Gatunek: Horror, Akcja Czas trwania: 91 min. Premiera: 05.01.2017 - Świat Reżyse...

pobierz torrent
 

Wielki Mur / The Gr...

[info] Tytuł: The Great Wall Polski Tytuł: Wielki Mur ================== Ocena: IMDB - 6.3/10 (25282), Filmweb - 6.2/10 (6967) Produkcja: Chiny, USA Gatunek: Akcja, Przygodowy, Fantasy Czas trwania: 102 min. Premiera: 13.01.2017 - Polska, 16.12.20...

pobierz torrent
 

Łotr 1. Gwiezdne w...

[info] Tytuł: Rogue One: A Star Wars Story Polski Tytuł: Łotr 1. Gwiezdne wojny - historie ================== Ocena: IMDB - 8.1/10 (256648), Filmweb - 7.6/10 (81820) Produkcja: USA Gatunek: Akcja, Przygodowy, Sci-Fi Czas trwania: 133 min. Premie...

pobierz torrent
Vikings S04E14-16 [1080p.WEB-DL.H.264.DD5.1] [Napisy PL]

Vikings S04E14-16 [1080p.WEB-DL.H.264.DD5.1] [Napisy PL]


Kategoria: TV / SERIALE / ZAGRANICZNE

Zaakceptował: nie wymagał akceptacji
Liczba pobrań: 146
Ostatnia aktualizacja: 2017-01-09 19:39:57

Dodał: silver230 Data: 09-01-2017 Komentarze: 0
Rozmiar: 4.99 GB format: ZAGRANICZNE Seed: 1Peer: 9
Info Obsada Opis Szczegóły Media
INFO:

produkcja: Irlandia, Kanada
gatunek: Dramat historyczny
reżyseria: Ciaran Donnelly, Johan Renck, Ken Girotti
scenariusz: Michael Hirst, Ken Girotti
zdjęcia: John S. Bartley
muzyka: Trevor Morris
czas trwania: ok. 44 min.

OPIS:

"Vikings" opowiada historię Ragnara Lothbroka oraz jego braci i rodziny. Serial ukazuje jak Ragnar staje się królem wikińskich plemion. Poza byciem nieustraszonym wojownikiem, Ragnar jest ucieleśnieniem nordyckiej tradycji i oddania się bogom. Legenda mówi, że jest on bezpośrednim potomkiem Odyna, boga wojny i wojowników.

OBSADA:

Travis Fimmel - Ragnar Lothbrok
Katheryn Winnick - Lagertha Lothbrok
Gustaf Skarsgard - Floki
Alexander Ludwig - Bjorn Ironside
Alyssa Sutherland - Aslaug
Alex Hogh Andersen - Ivar
Marco Ilso - Hvitserk
David Lindström - Sigurd
Jordan Patrick Smith - Ubbe
Josefin Asplund - Astrid
Maude Hirst - Helga
Ida Nielsen - Margrethe

DANE:

Format : Matroska
Format version : Version 4 / Version 2
File size : 1.65 GiB
Duration : 44mn 11s
Overall bit rate : 5 352 Kbps
Encoded date : UTC 2017-01-09 15:57:23

Video
ID : 1
Format : AVC
Format/INFO : Advanced Video Codec
Format profile : High@L4.0
Format settings, CABAC : Yes
Format settings, ReFrames : 4 frames
Codec ID : V_MPEG4/ISO/AVC
Duration : 44mn 11s
Bit rate : 4 861 Kbps
Width : 1 916 pixels
Height : 1 076 pixels
Display aspect ratio : 16:9
Frame rate mode : Constant
Frame rate : 23.976 fps
Color space : YUV
Chroma subsampling : 4:2:0
Bit depth : 8 bits
Scan type : Progressive
Bits/(Pixel*Frame) : 0.098
Stream size : 1.50 GiB (91%)
Color primaries : BT.709
Transfer characteristics : BT.709
Matrix coefficients : BT.709

Audio
ID : 2
Format : AC-3
Format/INFO : Audio Coding 3
Mode extension : CM (complete main)
Format settings, Endianness : Big
Codec ID : A_AC3
Duration : 44mn 11s
Bit rate mode : Constant
Bit rate : 384 Kbps
Channel(s) : 6 channels
Channel positions : Front: L C R, Side: L R, LFE
Sampling rate : 48.0 KHz
Bit depth : 16 bits
Compression mode : Lossy
Stream size : 121 MiB (7%)
Language : English

Text
ID : 3
Format : UTF-8
Codec ID : S_TEXT/UTF8
Codec ID/INFO : UTF-8 Plain Text
Language : Polish

DETALE TORRENTA:[ Pokaż/Ukryj ]


wczytaj więcej torrentów
Copyright © 2015 All rights reserved Best-Torrents.net | Designed by Best-Torrents.net Torrenty są własnością użytkowników. Administrator serwisu nie może ponieść konsekwencji za to co użytkownicy wstawiają, lub za to co czynią na stronie. Nie możesz używać tego serwisu do rozpowszechniania lub ściągania materiałów do których nie masz odpowiednich praw lub licencji. Użytkownicy odpowiedzialni są za przestrzeganie tych zasad. PolicyDMCA