Underworld: Wojny k...

[info] Tytuł: Underworld: Blood Wars Polski Tytuł: Underworld: Wojny krwi ================== Ocena: IMDB - 6.4/10 (11364), Filmweb - 6.3/10 (4250) Produkcja: USA Gatunek: Horror, Akcja Czas trwania: 91 min. Premiera: 05.01.2017 - Świat Reżyse...

pobierz torrent
 

Wielki Mur / The Gr...

[info] Tytuł: The Great Wall Polski Tytuł: Wielki Mur ================== Ocena: IMDB - 6.3/10 (25282), Filmweb - 6.2/10 (6967) Produkcja: Chiny, USA Gatunek: Akcja, Przygodowy, Fantasy Czas trwania: 102 min. Premiera: 13.01.2017 - Polska, 16.12.20...

pobierz torrent
 

Łotr 1. Gwiezdne w...

[info] Tytuł: Rogue One: A Star Wars Story Polski Tytuł: Łotr 1. Gwiezdne wojny - historie ================== Ocena: IMDB - 8.1/10 (256648), Filmweb - 7.6/10 (81820) Produkcja: USA Gatunek: Akcja, Przygodowy, Sci-Fi Czas trwania: 133 min. Premie...

pobierz torrent
The Big Bang Theory S10E11 - The Birthday Synchronicity [720p.WEB-DL.H.264.AC3] [Lektor PL]

The Big Bang Theory S10E11 - The Birthday Synchronicity [720p.WEB-DL.H.264.AC3] [Lektor PL]


Kategoria: TV / SERIALE / ZAGRANICZNE

Zaakceptował: nie wymagał akceptacji
Liczba pobrań: 47
Ostatnia aktualizacja: 2017-01-06 18:43:20

Dodał: silver230 Data: 06-01-2017 Komentarze: 0
Rozmiar: 649.08 MB format: ZAGRANICZNE Seed: 54Peer: 9
Info Obsada Opis Szczegóły Media
INFO:

produkcja: USA
gatunek: Komedia
twórca: Chuck Lorre, Bill Prady, Steven Molaro
muzyka: Barenaked Ladies, Benson Taylor
zdjęcia: Steven V. Silver
czas trwania: ok. 22 min.

OPIS:

Fizycy Leonard i Sheldon rozumieją wszystko począwszy od nieuchronnego przyciągania czarnej dziury, a skończywszy na skomplikowanej budowie atomu. Ale jeśli złożycie te atomy w kobietę, wtedy ich rozumowanie nagle się kończy. A kiedy Penny, kobieta ze wszystkimi atomami we właściwym miejscu, wprowadza się do mieszkania naprzeciwko, wszechświat Leonarda i Sheldona zaczyna się rozszerzać do rozmiarów, których nigdy nie podejrzewali.

OBSADA:

Johnny Galecki - Leonard Hofstadter
Jim Parsons - Sheldon Cooper
Kaley Cuoco - Penny
Simon Helberg - Howard Wolowitz
Kunal Nayyar - Rajesh Koothrappali

DANE:

Format : Matroska
Format version : Version 4 / Version 2
File size : 649 MiB
Duration : 20mn 24s
Overall bit rate : 4 447 Kbps
Encoded date : UTC 2017-01-06 07:36:45

Video
ID : 1
Format : AVC
Format/INFO : Advanced Video Codec
Format profile : High@L3.1
Format settings, CABAC : No
Format settings, ReFrames : 2 frames
Codec ID : V_MPEG4/ISO/AVC
Duration : 20mn 24s
Bit rate : 3 975 Kbps
Width : 1 280 pixels
Height : 718 pixels
Display aspect ratio : 16:9
Frame rate mode : Constant
Frame rate : 23.976 fps
Color space : YUV
Chroma subsampling : 4:2:0
Bit depth : 8 bits
Scan type : Progressive
Bits/(Pixel*Frame) : 0.180
Stream size : 580 MiB (89%)
Color primaries : BT.709
Transfer characteristics : BT.709
Matrix coefficients : BT.709

Audio
ID : 2
Format : AC-3
Format/INFO : Audio Coding 3
Mode extension : CM (complete main)
Format settings, Endianness : Big
Codec ID : A_AC3
Duration : 20mn 24s
Bit rate mode : Constant
Bit rate : 384 Kbps
Channel(s) : 2 channels
Channel positions : Front: L R
Sampling rate : 48.0 KHz
Bit depth : 16 bits
Compression mode : Lossy
Stream size : 56.0 MiB (9%)
Language : Polish

DETALE TORRENTA:[ Pokaż/Ukryj ]


wczytaj więcej torrentów
Copyright © 2015 All rights reserved Best-Torrents.net | Designed by Best-Torrents.net Torrenty są własnością użytkowników. Administrator serwisu nie może ponieść konsekwencji za to co użytkownicy wstawiają, lub za to co czynią na stronie. Nie możesz używać tego serwisu do rozpowszechniania lub ściągania materiałów do których nie masz odpowiednich praw lub licencji. Użytkownicy odpowiedzialni są za przestrzeganie tych zasad. PolicyDMCA