Piekło / Inferno (...

[info] Tytuł: Inferno ================== Ocena: IMDB - 6.2/10 (64998), Filmweb - 6.3/10 (43340) Produkcja: Japonia, Turcja, USA, Węgry Gatunek: Thriller Czas trwania: 121 min. Premiera: 14 października 2016 (Polska), 12 października 2016 (świa...

pobierz torrent
 

Smoleńsk (2016) [P...

Info: Tytuł: Smoleńsk Ocena: IMDB - 1.1/10 (5242), Filmweb - 2.7/10 (17547) Produkcja: Polska Gatunek: Dramat Czas trwania: 115 min. Premiera: 09.09.2016 - Polska, 09.09.2016 - Świat Reżyseria: Antoni Krauze Scenariusz: Marcin Wolski, Maciej Paw...

pobierz torrent
 

Far Cry Primal - Ap...

Info: Ubisoft - producent Ubisoft - wydawca Ubisoft GmbH - wydawca PL Data premiery: 1 marca2016 - Świat 1 marca2016 - Polska Tryb gry: single player Gatunek: Akcji, FPP, sandbox, crafting, prehistoria. Opis: Far Cry Primal na komputerach...

pobierz torrent
The Affair S03E05 [720p.AMZN.WEBRip.x264.AC3] [Lektor PL]

The Affair S03E05 [720p.AMZN.WEBRip.x264.AC3] [Lektor PL]


Kategoria: TV / SERIALE / ZAGRANICZNE

Zaakceptował: nie wymagał akceptacji
Liczba pobrań: 17
Ostatnia aktualizacja: 2016-12-29 21:39:28

Dodał: silver230 Data: 29-12-2016 Komentarze: 0
Rozmiar: 1.71 GB format: ZAGRANICZNE Seed: 1Peer: 44
Info Obsada Opis Szczegóły Media
INFO:

produkcja: USA
gatunek: Dramat
reżyseria: Mark Mylod, Jeffrey Reiner, Carl Franklin
scenariusz: Hagai Levi, Sarah Treem
zdjęcia: Steven Fierberg
muzyka: Marcelo Zarvos
czas trwania: ok. 59 min.

OPIS:

Każdy z nas posiada jakiś sekret - taki, do którego nie chce się przyznać nawet przed samym sobą. Również bohaterowie nowego serialu obyczajowego The Affair skrywają przed najbliższymi tajemnicę... Ich przypadkowe spotkanie przeradza się w gorące uczucie. Początkowo próbują z nim walczyć, ale pożądanie jest silniejsze. Czy romans pomiędzy piękną kelnerką Alison i Noah Sollowayem wyjdzie na jaw? Czy zakazane uczucie doprowadzi do rozpadu związków kochanków i wpłynie na życie ich rodzin?

OBSADA:

Dominic West - Noah Solloway
Ruth Wilson - Alison Lockhart
Maura Tierney - Helen Solloway
Julia Goldani Telles - Whitney Solloway
Jadon Sand - Trevor Solloway
Jake Richard Siciliano - Martin Solloway
Leya Catlett - Stacey Solloway

DANE:

Format : Matroska
Format version : Version 4 / Version 2
File size : 1.71 GiB
Duration : 58mn 22s
Overall bit rate : 4 191 Kbps
Encoded date : UTC 2016-12-29 17:56:14

Video
ID : 1
Format : AVC
Format/INFO : Advanced Video Codec
Format profile : High@L4.1
Format settings, CABAC : Yes
Format settings, ReFrames : 9 frames
Codec ID : V_MPEG4/ISO/AVC
Duration : 58mn 22s
Bit rate : 3 724 Kbps
Width : 1 280 pixels
Height : 720 pixels
Display aspect ratio : 16:9
Frame rate mode : Constant
Frame rate : 23.976 fps
Color space : YUV
Chroma subsampling : 4:2:0
Bit depth : 8 bits
Scan type : Progressive
Bits/(Pixel*Frame) : 0.169
Stream size : 1.52 GiB (89%)
Writing library : x264

Audio
ID : 2
Format : AC-3
Format/INFO : Audio Coding 3
Mode extension : CM (complete main)
Format settings, Endianness : Big
Codec ID : A_AC3
Duration : 58mn 22s
Bit rate mode : Constant
Bit rate : 384 Kbps
Channel(s) : 2 channels
Channel positions : Front: L R
Sampling rate : 48.0 KHz
Bit depth : 16 bits
Compression mode : Lossy
Stream size : 160 MiB (9%)
Language : Polish

DETALE TORRENTA:[ Pokaż/Ukryj ]


wczytaj więcej torrentów
Copyright © 2015 All rights reserved Best-Torrents.net | Designed by Best-Torrents.net Torrenty są własnością użytkowników. Administrator serwisu nie może ponieść konsekwencji za to co użytkownicy wstawiają, lub za to co czynią na stronie. Nie możesz używać tego serwisu do rozpowszechniania lub ściągania materiałów do których nie masz odpowiednich praw lub licencji. Użytkownicy odpowiedzialni są za przestrzeganie tych zasad. PolicyDMCA