Piekło / Inferno (...

[info] Tytuł: Inferno ================== Ocena: IMDB - 6.2/10 (64998), Filmweb - 6.3/10 (43340) Produkcja: Japonia, Turcja, USA, Węgry Gatunek: Thriller Czas trwania: 121 min. Premiera: 14 października 2016 (Polska), 12 października 2016 (świa...

pobierz torrent
 

Smoleńsk (2016) [P...

Info: Tytuł: Smoleńsk Ocena: IMDB - 1.1/10 (5242), Filmweb - 2.7/10 (17547) Produkcja: Polska Gatunek: Dramat Czas trwania: 115 min. Premiera: 09.09.2016 - Polska, 09.09.2016 - Świat Reżyseria: Antoni Krauze Scenariusz: Marcin Wolski, Maciej Paw...

pobierz torrent
 

Far Cry Primal - Ap...

Info: Ubisoft - producent Ubisoft - wydawca Ubisoft GmbH - wydawca PL Data premiery: 1 marca2016 - Świat 1 marca2016 - Polska Tryb gry: single player Gatunek: Akcji, FPP, sandbox, crafting, prehistoria. Opis: Far Cry Primal na komputerach...

pobierz torrent
Shooter S01E08 - Red on Red [720p.NF.WEBRip.x264.AC3] [Lektor PL]

Shooter S01E08 - Red on Red [720p.NF.WEBRip.x264.AC3] [Lektor PL]


Kategoria: TV / SERIALE / ZAGRANICZNE

Zaakceptował: nie wymagał akceptacji
Liczba pobrań: 75
Ostatnia aktualizacja: 2017-01-06 18:45:53

Dodał: silver230 Data: 06-01-2017 Komentarze: 0
Rozmiar: 1.46 GB format: ZAGRANICZNE Seed: 55Peer: 14
Info Obsada Opis Szczegóły Media
INFO:

produkcja: USA
gatunek: Akcja, Dramat
reżyseria: Simon Cellan Jones
scenariusz: Matt Bosack, David Daitch
muzyka: Bobby Krlic
zdjęcia: Jaime Reynoso, Michael Eley
czas trwania: ok. 42 min.

OPIS:

Były snajper Marines powraca do służby, aby udaremnić zamach na prezydenta Stanów Zjednoczonych. Wkrótce zostaje oskarżony o morderstwo, którego nie popełnił.

OBSADA:

Cynthia Addai-Robinson - Nadine Memphis
Ryan Phillippe - Bob Lee Swagger
Lexy Kolker - Mary Swagger
Omar Epps - Isaac Johnson
Sean Cameron Michael - Grigory Krukov
Delaina Mitchell - Anne Murphy
Shantel VanSanten - Julie Swagger
David Andrews - Sam Vincent

DANE:

Format : Matroska
Format version : Version 4 / Version 2
File size : 1.46 GiB
Duration : 40mn 58s
Overall bit rate : 5 099 Kbps
Encoded date : UTC 2017-01-06 07:18:49

Video
ID : 1
Format : AVC
Format/INFO : Advanced Video Codec
Format profile : High@L4.1
Format settings, CABAC : Yes
Format settings, ReFrames : 5 frames
Codec ID : V_MPEG4/ISO/AVC
Duration : 40mn 58s
Bit rate : 4 765 Kbps
Width : 1 280 pixels
Height : 720 pixels
Display aspect ratio : 16:9
Frame rate mode : Constant
Frame rate : 29.970 fps
Color space : YUV
Chroma subsampling : 4:2:0
Bit depth : 8 bits
Scan type : Progressive
Bits/(Pixel*Frame) : 0.173
Stream size : 1.32 GiB (90%)
Writing library : x264 core 148 r2721
Color primaries : BT.709
Transfer characteristics : BT.709
Matrix coefficients : BT.709

Audio
ID : 2
Format : AC-3
Format/INFO : Audio Coding 3
Mode extension : CM (complete main)
Format settings, Endianness : Big
Codec ID : A_AC3
Duration : 40mn 58s
Bit rate mode : Constant
Bit rate : 384 Kbps
Channel(s) : 2 channels
Channel positions : Front: L R
Sampling rate : 48.0 KHz
Bit depth : 16 bits
Compression mode : Lossy
Stream size : 113 MiB (8%)
Language : Polish

DETALE TORRENTA:[ Pokaż/Ukryj ]


wczytaj więcej torrentów
Copyright © 2015 All rights reserved Best-Torrents.net | Designed by Best-Torrents.net Torrenty są własnością użytkowników. Administrator serwisu nie może ponieść konsekwencji za to co użytkownicy wstawiają, lub za to co czynią na stronie. Nie możesz używać tego serwisu do rozpowszechniania lub ściągania materiałów do których nie masz odpowiednich praw lub licencji. Użytkownicy odpowiedzialni są za przestrzeganie tych zasad. PolicyDMCA