Assassin's Creed (2...

[info] Tytuł: Assassin's Creed ================== Ocena: IMDB - 6.3/10 (53130), Filmweb - 6.2/10 (20275) Produkcja: Francja, USA, Wielka Brytania Gatunek: Akcja, Przygodowy, Fanatsy Czas trwania: 114 min. Premiera: 06.01.2017 - Polska, 21.12.2016 - ...

pobierz torrent
 

Doktor Strange / Do...

Info: Tytuł: Doctor Strange / Doktor Strange Ocena: IMDB - 7.8/10 (191843), Filmweb - 7.6/10 (61772) Produkcja: USA Gatunek: Fantasy, Przygodowy Czas trwania: 130 min. Premiera: 26.10.2016 - Polska, 26.10.2016 - Świat Reżyseria: Scott Derrickson ...

pobierz torrent
 

VA - Hot Dance vol ...

[img]http://s18.postimg.org/5u338nybd/Information.gif[/img] Artist...............: VA Album................: Hot Dance vol.400 Genre................: Dance / Clab Source...............: CD Year.................: 2017 Ripper...............: Aladyn1111...

pobierz torrent
Shameless US S07E05 - Own Your Shit [720p.AMZN.WEBRip.x264.AC3] [Lektor PL] [ENG+Napisy PL]

Shameless US S07E05 - Own Your Shit [720p.AMZN.WEBRip.x264.AC3] [Lektor PL] [ENG+Napisy PL]


Kategoria: TV / SERIALE / ZAGRANICZNE

Zaakceptował: nie wymagał akceptacji
Liczba pobrań: 7
Ostatnia aktualizacja: 2017-01-06 18:48:53

Dodał: silver230 Data: 06-01-2017 Komentarze: 0
Rozmiar: 2.12 GB format: ZAGRANICZNE Seed: 13Peer: 11
Info Obsada Opis Szczegóły Media
INFO:

produkcja: USA
gatunek: Dramat, Komedia
twórca: Paul Abbott, John Wells
muzyka: iZLER, Mark Mothersbaugh, Jeff Russo
zdjęcia: Rodney Charters, J. Michael Muro, David Moritz
czas trwania: ok. 55 min.

OPIS:

Serial opowiada o rodzinie ze społecznego marginesu. Rodzina Gallagherów to szóstka dzieci i wiecznie pijany ojciec - Frank Gallagher, który robi wszystko, tylko nie zajmuje się domem. Dzieciom nie pomaga także matka, która odeszła od rodziny. Cały ciężar prowadzenia domu i rodziny spada na barki najstarszej córki Fiony. Bohaterka w związku z niedyspozycją rodziców sama zajmuje się wychowywaniem swoich licznych braci i sióstr. To nie jest jednak zadanie łatwe do wykonania.

OBSADA:

William H. Macy - Frank Gallagher
Emmy Rossum - Fiona Gallagher
Jeremy Allen White - Phillip Lip Gallagher
Cameron Monaghan - Ian Gallagher
Emma Kenney - Debbie Gallagher
Ethan Cutkosky - Carl Gallagher

DANE:

Format : Matroska
Format version : Version 4 / Version 2
File size : 2.12 GiB
Duration : 53mn 11s
Overall bit rate : 5 703 Kbps
Encoded date : UTC 2017-01-06 09:28:54

Video
ID : 1
Format : AVC
Format/INFO : Advanced Video Codec
Format profile : High@L4.1
Format settings, CABAC : Yes
Format settings, ReFrames : 9 frames
Codec ID : V_MPEG4/ISO/AVC
Duration : 53mn 11s
Bit rate : 4 565 Kbps
Width : 1 280 pixels
Height : 720 pixels
Display aspect ratio : 16:9
Frame rate mode : Constant
Frame rate : 23.976 fps
Color space : YUV
Chroma subsampling : 4:2:0
Bit depth : 8 bits
Scan type : Progressive
Bits/(Pixel*Frame) : 0.207
Stream size : 1.70 GiB (80%)
Writing library : x264 core 144 r2525

Audio 1
ID : 2
Format : AC-3
Format/INFO : Audio Coding 3
Mode extension : CM (complete main)
Format settings, Endianness : Big
Codec ID : A_AC3
Duration : 53mn 11s
Bit rate mode : Constant
Bit rate : 384 Kbps
Channel(s) : 2 channels
Channel positions : Front: L R
Sampling rate : 48.0 KHz
Bit depth : 16 bits
Compression mode : Lossy
Stream size : 146 MiB (7%)
Language : Polish
Default : Yes
Forced : No

Audio 2
ID : 3
Format : E-AC-3
Format/INFO : Audio Coding 3
Format settings, Endianness : Big
Codec ID : A_EAC3
Duration : 53mn 11s
Bit rate mode : Constant
Bit rate : 640 Kbps
Channel(s) : 6 channels
Channel positions : Front: L C R, Side: L R, LFE
Sampling rate : 48.0 KHz
Compression mode : Lossy
Stream size : 243 MiB (11%)
Language : English
Default : No
Forced : No

Text
ID : 4
Format : UTF-8
Codec ID : S_TEXT/UTF8
Codec ID/INFO : UTF-8 Plain Text
Language : Polish
Default : No
Forced : No

DETALE TORRENTA:[ Pokaż/Ukryj ]


wczytaj więcej torrentów
Copyright © 2015 All rights reserved Best-Torrents.net | Designed by Best-Torrents.net Torrenty są własnością użytkowników. Administrator serwisu nie może ponieść konsekwencji za to co użytkownicy wstawiają, lub za to co czynią na stronie. Nie możesz używać tego serwisu do rozpowszechniania lub ściągania materiałów do których nie masz odpowiednich praw lub licencji. Użytkownicy odpowiedzialni są za przestrzeganie tych zasad. PolicyDMCA