Piekło / Inferno (...

[info] Tytuł: Inferno ================== Ocena: IMDB - 6.2/10 (64998), Filmweb - 6.3/10 (43340) Produkcja: Japonia, Turcja, USA, Węgry Gatunek: Thriller Czas trwania: 121 min. Premiera: 14 października 2016 (Polska), 12 października 2016 (świa...

pobierz torrent
 

Smoleńsk (2016) [P...

Info: Tytuł: Smoleńsk Ocena: IMDB - 1.1/10 (5242), Filmweb - 2.7/10 (17547) Produkcja: Polska Gatunek: Dramat Czas trwania: 115 min. Premiera: 09.09.2016 - Polska, 09.09.2016 - Świat Reżyseria: Antoni Krauze Scenariusz: Marcin Wolski, Maciej Paw...

pobierz torrent
 

Far Cry Primal - Ap...

Info: Ubisoft - producent Ubisoft - wydawca Ubisoft GmbH - wydawca PL Data premiery: 1 marca2016 - Świat 1 marca2016 - Polska Tryb gry: single player Gatunek: Akcji, FPP, sandbox, crafting, prehistoria. Opis: Far Cry Primal na komputerach...

pobierz torrent
Ripper Street S05E03-05 [720p.AMZN.WEBRip.x264.DD5.1] [Napisy PL]

Ripper Street S05E03-05 [720p.AMZN.WEBRip.x264.DD5.1] [Napisy PL]


Kategoria: TV / SERIALE / ZAGRANICZNE

Zaakceptował: nie wymagał akceptacji
Liczba pobrań: 19
Ostatnia aktualizacja: 2017-01-07 13:21:14

Dodał: silver230 Data: 07-01-2017 Komentarze: 0
Rozmiar: 9.58 GB format: ZAGRANICZNE Seed: 14Peer: 36
Info Obsada Opis Szczegóły Media
INFO:

produkcja: Wielka Brytania
gatunek: Dramat, Kryminał
reżyseria: Tom Shankland , Colm McCarthy, Andy Wilson
scenariusz: Richard Warlow
zdjęcia: Julian Court, Peter Robertson, P.J. Dillon
muzyka: Dominik Scherrer
czas trwania: ok. 60 min.

OPIS:

Akcja serialu osadzona jest w wiktoriańskim Londynie roku 1889, w czasach seryjnych zabójstw Kuby Rozpruwacza. W centrum wydarzeń serialu jest Dywizja H - okryty złą sławą posterunek policji. Poprzez swoje działania, próbując utrzymać porządek w przeludnionej dzielnicy Whitechapel, staje się znana na całym świecie.

OBSADA:

Matthew Macfadyen - Edmund Reid
Jerome Flynn - Bennet Drake
Adam Rothenberg - Homer Jackson
MyAnna Buring - Long Susan
Charlene McKenna - Rose Erskine
Anna Burnett - Mathilda Reid
Joseph Mawle - Jedediah Shine
Killian Scott - Augustus Dove
Jonas Armstrong - Nathaniel
Benjamin O'Mahony - Frank Thatcher
Matthew Lewis - Drum Drummond

DANE:

Format : Matroska
Format version : Version 4 / Version 2
File size : 3.32 GiB
Duration : 1h 14mn
Overall bit rate : 6 420 Kbps
Encoded date : UTC 2017-01-06 16:56:52

Video
ID : 1
Format : AVC
Format/INFO : Advanced Video Codec
Format profile : High@L4.1
Format settings, CABAC : Yes
Format settings, ReFrames : 9 frames
Codec ID : V_MPEG4/ISO/AVC
Duration : 1h 14mn
Bit rate : 5 908 Kbps
Width : 1 280 pixels
Height : 720 pixels
Display aspect ratio : 16:9
Frame rate mode : Constant
Frame rate : 25.000 fps
Color space : YUV
Chroma subsampling : 4:2:0
Bit depth : 8 bits
Scan type : Progressive
Bits/(Pixel*Frame) : 0.256
Stream size : 3.06 GiB (92%)
Writing library : x264

Audio
ID : 2
Format : AC-3
Format/INFO : Audio Coding 3
Mode extension : CM (complete main)
Format settings, Endianness : Big
Codec ID : A_AC3
Duration : 1h 14mn
Bit rate mode : Constant
Bit rate : 384 Kbps
Channel(s) : 6 channels
Channel positions : Front: L C R, Side: L R, LFE
Sampling rate : 48.0 KHz
Bit depth : 16 bits
Compression mode : Lossy
Stream size : 203 MiB (6%)
Language : English

Text
ID : 3
Format : UTF-8
Codec ID : S_TEXT/UTF8
Codec ID/INFO : UTF-8 Plain Text
Language : Polish

DETALE TORRENTA:[ Pokaż/Ukryj ]


wczytaj więcej torrentów
Copyright © 2015 All rights reserved Best-Torrents.net | Designed by Best-Torrents.net Torrenty są własnością użytkowników. Administrator serwisu nie może ponieść konsekwencji za to co użytkownicy wstawiają, lub za to co czynią na stronie. Nie możesz używać tego serwisu do rozpowszechniania lub ściągania materiałów do których nie masz odpowiednich praw lub licencji. Użytkownicy odpowiedzialni są za przestrzeganie tych zasad. PolicyDMCA