Piekło / Inferno (...

[info] Tytuł: Inferno ================== Ocena: IMDB - 6.2/10 (64998), Filmweb - 6.3/10 (43340) Produkcja: Japonia, Turcja, USA, Węgry Gatunek: Thriller Czas trwania: 121 min. Premiera: 14 października 2016 (Polska), 12 października 2016 (świa...

pobierz torrent
 

Smoleńsk (2016) [P...

Info: Tytuł: Smoleńsk Ocena: IMDB - 1.1/10 (5242), Filmweb - 2.7/10 (17547) Produkcja: Polska Gatunek: Dramat Czas trwania: 115 min. Premiera: 09.09.2016 - Polska, 09.09.2016 - Świat Reżyseria: Antoni Krauze Scenariusz: Marcin Wolski, Maciej Paw...

pobierz torrent
 

Far Cry Primal - Ap...

Info: Ubisoft - producent Ubisoft - wydawca Ubisoft GmbH - wydawca PL Data premiery: 1 marca2016 - Świat 1 marca2016 - Polska Tryb gry: single player Gatunek: Akcji, FPP, sandbox, crafting, prehistoria. Opis: Far Cry Primal na komputerach...

pobierz torrent
Ouija:Origin of Evil (2016) [HDRip.XviD.AC3-EVO] [ENG]

Ouija:Origin of Evil (2016) [HDRip.XviD.AC3-EVO] [ENG]


Kategoria: FILMY / DIVX / XVID

Zaakceptował: nie wymagał akceptacji
Liczba pobrań: 93
Ostatnia aktualizacja: 0000-00-00 00:00:00

Dodał: TheCrow Data: 04-01-2017 Komentarze: 0
Rozmiar: 1.41 GB format: DIVX / XVID Seed: 2Peer: 14
Info Obsada Opis Szczegóły Media
Info:
Tytuł: Ouija: Origin of Evil / Ouija 2 / Ouija: Narodziny zła
Ocena: IMDB - 6.2/10 (14693), Filmweb - 5.4/10 (4887)

Produkcja: USA
Gatunek: Horror
Czas trwania: 91 min.
Premiera: 28.10.2016 - Polska, 20.10.2016 - Świat
Reżyseria: Mike Flanagan
Scenariusz: Mike Flanagan, Jeff Howard

Aktorzy:
Annalise Basso, Elizabeth Reaser, Lulu Wilson, Henry Thomas

OPIS:
Kobieta z dwiema córkami przeprowadza się do nowego domu. Wśród starych rzeczy rodzina znajduje stolik spirytystyczny.

Dane techniczne:
Complete name : Ouija.Origin.of.Evil.2016.HDRip.XviD.AC3-EVO[PRiME].avi
Format : AVI
Format/Info : Audio Video Interleave
Format profile : OpenDML
Format settings : rec
File size : 1.39 GiB
Duration : 1 h 38 min
Overall bit rate : 2 017 kb/s
Writing application : AVI-Mux GUI 1.17.8.3, Feb 16 201019:42:50

Video
ID : 0
Format : MPEG-4 Visual
Format profile : Advanced Simple@L5
Format settings, BVOP : 2
Format settings, QPel : No
Format settings, GMC : No warppoints
Format settings, Matrix : Default (H.263)
Muxing mode : Packed bitstream
Codec ID : XVID
Codec ID/Hint : XviD
Duration : 1 h 38 min
Bit rate : 1 820 kb/s
Width : 720 pixels
Height : 384 pixels
Display aspect ratio : 1.85:1
Frame rate : 23.976 (23976/1000) FPS
Color space : YUV
Chroma subsampling : 4:2:0
Bit depth : 8 bits
Scan type : Progressive
Compression mode : Lossy
Bits/(Pixel*Frame) : 0.275
Stream size : 1.26 GiB (90%)
Writing library : XviD 66

Audio
ID : 1
Format : AC-3
Format/Info : Audio Coding 3
Mode extension : CM (complete main)
Format settings, Endianness : Big
Codec ID : 2000
Duration : 1 h 38 min
Bit rate mode : Constant
Bit rate : 192 kb/s
Channel(s) : 2 channels
Channel positions : Front: L R
Sampling rate : 48.0 kHz
Frame rate : 31.250 FPS (1536 spf)
Compression mode : Lossy
Stream size : 136 MiB (10%)
Alignment : Aligned on interleaves
Interleave, duration : 64 ms (1.53 video frames)
Interleave, preload duration : 192 ms
Title : ac3

DETALE TORRENTA:[ Pokaż/Ukryj ]


wczytaj więcej torrentów
Copyright © 2015 All rights reserved Best-Torrents.net | Designed by Best-Torrents.net Torrenty są własnością użytkowników. Administrator serwisu nie może ponieść konsekwencji za to co użytkownicy wstawiają, lub za to co czynią na stronie. Nie możesz używać tego serwisu do rozpowszechniania lub ściągania materiałów do których nie masz odpowiednich praw lub licencji. Użytkownicy odpowiedzialni są za przestrzeganie tych zasad. PolicyDMCA