Underworld: Wojny k...

[info] Tytuł: Underworld: Blood Wars Polski Tytuł: Underworld: Wojny krwi ================== Ocena: IMDB - 6.4/10 (11364), Filmweb - 6.3/10 (4250) Produkcja: USA Gatunek: Horror, Akcja Czas trwania: 91 min. Premiera: 05.01.2017 - Świat Reżyse...

pobierz torrent
 

Wielki Mur / The Gr...

[info] Tytuł: The Great Wall Polski Tytuł: Wielki Mur ================== Ocena: IMDB - 6.3/10 (25282), Filmweb - 6.2/10 (6967) Produkcja: Chiny, USA Gatunek: Akcja, Przygodowy, Fantasy Czas trwania: 102 min. Premiera: 13.01.2017 - Polska, 16.12.20...

pobierz torrent
 

Łotr 1. Gwiezdne w...

[info] Tytuł: Rogue One: A Star Wars Story Polski Tytuł: Łotr 1. Gwiezdne wojny - historie ================== Ocena: IMDB - 8.1/10 (256648), Filmweb - 7.6/10 (81820) Produkcja: USA Gatunek: Akcja, Przygodowy, Sci-Fi Czas trwania: 133 min. Premie...

pobierz torrent
Kulisy II Wojny Swiatowej [E06] (2008) [720p][TVRip][x264][AC3][Lektor PL]

Kulisy II Wojny Swiatowej [E06] (2008) [720p][TVRip][x264][AC3][Lektor PL]


Kategoria: FILMY / HD / x264

Zaakceptował: TheCrow
Liczba pobrań: 109
Ostatnia aktualizacja: 2016-12-15 16:49:29

Dodał: viola62 Data: 15-12-2016 Komentarze: 0
Rozmiar: 999.66 MB format: HD / x264 Seed: 1Peer: 26
Info Obsada Opis Szczegóły Media
INFO/



Tytuł: Kulisy II Wojny Światowej E06 / WWII Behind Closed Doors: Stalin, the Nazis and the West E06
Gatunek: Dokument Fabularyzowany
Reżyseria: Laurence Rees
Scenariusz: Laurence Rees
Zdjęcia: Martin Ratmore, Jacek Petrycki, Siergiej Astachow
Muzyka: Alasdair Reid
Produkcja: UK
Rok produkcji: 2008

http://www.filmweb.pl/serial/Kulisy+II+wojny+%C5%9Bwiatowej-2008-505425

https://www.youtube.com/watch?v=IiK2qKnYxSc&list=PLBOXjuzxIKcprFZoxILd95ZxWZNANYqNu




OPIS/


Odcinek obrazuje, jak po zakończeniu wojny, większa część Europy, spod panowania jednego tyrana dostała się w ręce drugiego. Kiedy skończyła się II wojna światowa, Sowieci przejęli otoczony złą legendą nazistowski obóz koncentracyjny i zaczęli do niego zsyłać własnych wrogów.
Protokoły tajnych spotkań aliantów ujawniają ich głęboki niepokój w obliczu faktu, iż kontrolę nad Europą Wschodnią przejął Stalin. Sowieci odebrali milionom Europejczyków swobody, o które Zachód w swoim rozumieniu walczył podczas wojny. Czy Związek Radziecki, wojenny sojusznik Zachodu, stawał się jego nowym wrogiem?




DANE/


Format : Matroska
Format version : Version 2
File size : 999 MiB
Duration : 51mn 29s
Overall bit rate : 2 713 Kbps
Encoded date : UTC 2014-11-06 13:25:13
Writing application : mkvmerge v6.7.0 ('Back to the Ground') 32bit built on Jan 8 2014 15:03:17
Writing library : libebml v1.3.0 + libmatroska v1.4.1
DURATION : 00:51:29.880000000
NUMBER_OF_FRAMES : 77247
NUMBER_OF_BYTES : 997831651
_STATISTICS_WRITING_APP : mkvmerge v7.2.0 ('On Every Street') 32bit built on Sep 13 2014 15:42:11
_STATISTICS_WRITING_DATE_UT : 2014-10-08 04:01:30
_STATISTICS_TAGS : BPS DURATION NUMBER_OF_FRAMES NUMBER_OF_BYTES

Video
ID : 1
Format : AVC
Format/Info : Advanced Video Codec
Format profile : High@L4.1
Format settings, CABAC : Yes
Format settings, ReFrames : 4 frames
Codec ID : V_MPEG4/ISO/AVC
Duration : 51mn 29s
Bit rate : 2 584 Kbps
Width : 1 280 pixels
Height : 720 pixels
Display aspect ratio : 16:9
Frame rate mode : Constant
Frame rate : 25.000 fps
Color space : YUV
Chroma subsampling : 4:2:0
Bit depth : 8 bits
Scan type : Progressive
Bits/(Pixel*Frame) : 0.112
Stream size : 932 MiB (93%)
Writing library : x264 core 142 r2479 dd79a61
Encoding settings : cabac=1 / ref=4 / deblock=1:-1:-1 / analyse=0x3:0x113 / me=umh / subme=6 / psy=1 / psy_rd=1.00:0.00 / mixed_ref=1 / me_range=16 / chroma_me=1 / trellis=2 / 8x8dct=1 / cqm=0 / deadzone=21,11 / fast_pskip=1 / chroma_qp_offset=-2 / threads=6 / lookahead_threads=1 / sliced_threads=0 / nr=0 / decimate=1 / interlaced=0 / bluray_compat=0 / constrained_intra=0 / bframes=3 / b_pyramid=2 / b_adapt=2 / b_bias=0 / direct=3 / weightb=1 / open_gop=0 / weightp=2 / keyint=250 / keyint_min=25 / scenecut=40 / intra_refresh=0 / rc_lookahead=40 / rc=2pass / mbtree=1 / bitrate=2584 / ratetol=1.0 / qcomp=0.60 / qpmin=10 / qpmax=51 / qpstep=4 / cplxblur=20.0 / qblur=0.5 / vbv_maxrate=50000 / vbv_bufsize=50000 / nal_hrd=none / filler=0 / ip_ratio=1.40 / aq=1:1.00
Default : Yes
Forced : No

Audio
ID : 2
Format : AC-3
Format/Info : Audio Coding 3
Mode extension : CM (complete main)
Format settings, Endianness : Big
Codec ID : A_AC3
Duration : 51mn 29s
Bit rate mode : Constant
Bit rate : 128 Kbps
Channel(s) : 2 channels
Channel positions : Front: L R
Sampling rate : 48.0 KHz
Compression mode : Lossy
Stream size : 47.1 MiB (5%)
Language : Polish
Default : Yes
Forced : No

DETALE TORRENTA:[ Pokaż/Ukryj ]


wczytaj więcej torrentów
Copyright © 2015 All rights reserved Best-Torrents.net | Designed by Best-Torrents.net Torrenty są własnością użytkowników. Administrator serwisu nie może ponieść konsekwencji za to co użytkownicy wstawiają, lub za to co czynią na stronie. Nie możesz używać tego serwisu do rozpowszechniania lub ściągania materiałów do których nie masz odpowiednich praw lub licencji. Użytkownicy odpowiedzialni są za przestrzeganie tych zasad. PolicyDMCA