Underworld: Wojny k...

[info] Tytuł: Underworld: Blood Wars Polski Tytuł: Underworld: Wojny krwi ================== Ocena: IMDB - 6.4/10 (11364), Filmweb - 6.3/10 (4250) Produkcja: USA Gatunek: Horror, Akcja Czas trwania: 91 min. Premiera: 05.01.2017 - Świat Reżyse...

pobierz torrent
 

Wielki Mur / The Gr...

[info] Tytuł: The Great Wall Polski Tytuł: Wielki Mur ================== Ocena: IMDB - 6.3/10 (25282), Filmweb - 6.2/10 (6967) Produkcja: Chiny, USA Gatunek: Akcja, Przygodowy, Fantasy Czas trwania: 102 min. Premiera: 13.01.2017 - Polska, 16.12.20...

pobierz torrent
 

Łotr 1. Gwiezdne w...

[info] Tytuł: Rogue One: A Star Wars Story Polski Tytuł: Łotr 1. Gwiezdne wojny - historie ================== Ocena: IMDB - 8.1/10 (256648), Filmweb - 7.6/10 (81820) Produkcja: USA Gatunek: Akcja, Przygodowy, Sci-Fi Czas trwania: 133 min. Premie...

pobierz torrent
Krampus Unleashed (2016) [DVDRiP.x264-SPRiNTER] [ENG]

Krampus Unleashed (2016) [DVDRiP.x264-SPRiNTER] [ENG]


Kategoria: FILMY / HD / x264

Zaakceptował: nie wymagał akceptacji
Liczba pobrań: 50
Ostatnia aktualizacja: 0000-00-00 00:00:00

Dodał: TheCrow Data: 28-12-2016 Komentarze: 0
Rozmiar: 507.62 MB format: HD / x264 Seed: 7Peer: 27
Info Obsada Opis Szczegóły Media
Info:
Tytuł: Krampus Unleashed
Ocena: IMDB - 2.5/10 (138)

Produkcja: USA
Gatunek: Horror
Czas trwania: 79 min.
Premiera: 01.11.2016 - Świat
Reżyseria: Robert Conway
Scenariusz: Robert Conway

Aktorzy:
Amelia Brantley, Bryson Holl, Caroline Lassetter, Taylor Buckley

OPIS:
Krampus zostaje wybudzony ze swojego wiecznego snu. I jest spragniony krwi. Jak nigdy.

Dane techniczne:

Complete name : krampus.unleashed.2016.dvdrip.x264-sprinter[PRiME].mkv
Format : Matroska
Format version : Version 4 / Version 2
File size : 508 MiB
Duration : 1 h 19 min
Overall bit rate : 890 kb/s
Encoded date : UTC 2016-12-26 23:04:46
Writing application : mkvmerge v9.4.2 ('So High') 64bit
Writing library : libebml v1.3.4 + libmatroska v1.4.5

Video
ID : 1
Format : AVC
Format/Info : Advanced Video Codec
Format profile : High@L3.1
Format settings, CABAC : Yes
Format settings, ReFrames : 5 frames
Codec ID : V_MPEG4/ISO/AVC
Duration : 1 h 19 min
Bit rate : 760 kb/s
Width : 720 pixels
Height : 314 pixels
Display aspect ratio : 2.25:1
Frame rate mode : Constant
Frame rate : 23.976 (24000/1001) FPS
Color space : YUV
Chroma subsampling : 4:2:0
Bit depth : 8 bits
Scan type : Progressive
Bits/(Pixel*Frame) : 0.140
Stream size : 433 MiB (85%)
Writing library : x264 core 148 r2705 3f5ed56
Encoding settings : cabac=1 / ref=5 / deblock=1:0:0 / analyse=0x3:0x113 / me=umh / subme=8 / psy=1 / psy_rd=1.00:0.00 / mixed_ref=1 / me_range=16 / chroma_me=1 / trellis=1 / 8x8dct=1 / cqm=0 / deadzone=21,11 / fast_pskip=1 / chroma_qp_offset=-2 / threads=10 / lookahead_threads=1 / sliced_threads=0 / nr=0 / decimate=1 / interlaced=0 / bluray_compat=0 / constrained_intra=0 / bframes=3 / b_pyramid=2 / b_adapt=2 / b_bias=0 / direct=3 / weightb=1 / open_gop=0 / weightp=2 / keyint=250 / keyint_min=23 / scenecut=40 / intra_refresh=0 / rc_lookahead=50 / rc=crf / mbtree=1 / crf=19.0 / qcomp=0.60 / qpmin=0 / qpmax=69 / qpstep=4 / ip_ratio=1.40 / aq=1:1.00
Default : Yes
Forced : No

Audio
ID : 2
Format : AAC
Format/Info : Advanced Audio Codec
Format profile : LC
Codec ID : A_AAC
Duration : 1 h 19 min
Bit rate : 128 kb/s
Channel(s) : 2 channels
Channel positions : Front: L R
Sampling rate : 48.0 kHz
Frame rate : 46.875 FPS (1024 spf)
Compression mode : Lossy
Delay relative to video : 20 ms
Stream size : 72.8 MiB (14%)
Language : English
Default : Yes
Forced : No

Text
ID : 3
Format : UTF-8
Codec ID : S_TEXT/UTF8
Codec ID/Info : UTF-8 Plain Text
Duration : 1 h 19 min
Bit rate : 90 b/s
Count of elements : 1657
Stream size : 52.4 KiB (0%)
Language : English
Default : No
Forced : No

DETALE TORRENTA:[ Pokaż/Ukryj ]


wczytaj więcej torrentów
Copyright © 2015 All rights reserved Best-Torrents.net | Designed by Best-Torrents.net Torrenty są własnością użytkowników. Administrator serwisu nie może ponieść konsekwencji za to co użytkownicy wstawiają, lub za to co czynią na stronie. Nie możesz używać tego serwisu do rozpowszechniania lub ściągania materiałów do których nie masz odpowiednich praw lub licencji. Użytkownicy odpowiedzialni są za przestrzeganie tych zasad. PolicyDMCA