Underworld: Wojny k...

[info] Tytuł: Underworld: Blood Wars Polski Tytuł: Underworld: Wojny krwi ================== Ocena: IMDB - 6.4/10 (11364), Filmweb - 6.3/10 (4250) Produkcja: USA Gatunek: Horror, Akcja Czas trwania: 91 min. Premiera: 05.01.2017 - Świat Reżyse...

pobierz torrent
 

Wielki Mur / The Gr...

[info] Tytuł: The Great Wall Polski Tytuł: Wielki Mur ================== Ocena: IMDB - 6.3/10 (25282), Filmweb - 6.2/10 (6967) Produkcja: Chiny, USA Gatunek: Akcja, Przygodowy, Fantasy Czas trwania: 102 min. Premiera: 13.01.2017 - Polska, 16.12.20...

pobierz torrent
 

Łotr 1. Gwiezdne w...

[info] Tytuł: Rogue One: A Star Wars Story Polski Tytuł: Łotr 1. Gwiezdne wojny - historie ================== Ocena: IMDB - 8.1/10 (256648), Filmweb - 7.6/10 (81820) Produkcja: USA Gatunek: Akcja, Przygodowy, Sci-Fi Czas trwania: 133 min. Premie...

pobierz torrent
Homeland S06E01 - Fair Game [720p.AMZN.WEBRip.x264.DD5.1] [Napisy PL]

Homeland S06E01 - Fair Game [720p.AMZN.WEBRip.x264.DD5.1] [Napisy PL]


Kategoria: TV / SERIALE / ZAGRANICZNE

Zaakceptował: nie wymagał akceptacji
Liczba pobrań: 54
Ostatnia aktualizacja: 2017-01-06 19:03:51

Dodał: silver230 Data: 06-01-2017 Komentarze: 0
Rozmiar: 2.79 GB format: ZAGRANICZNE Seed: 5Peer: 21
Info Obsada Opis Szczegóły Media
INFO:

produkcja: USA
gatunek: Thriller, Dramat
reżyseria: Keith Gordon, Lesli Linka Glatter
scenariusz: Alex Gansa, Howard Gordon, Gideon Raff, Ted Mann
zdjęcia: David Klein, Giorgio Scali
muzyka: Sean Callery
czas trwania odcinka: ok. 52 min.

OPIS:

Miejscem akcji są znowu Stany Zjednoczone, a konkretnie Nowy Jork. Co prawda jak na razie zarys fabularny jest dość oszczędny, ale główne założenia zostały jasno zaprezentowane i wszystko wskazuje na to, że w szóstym sezonie wielka polityka będzie odgrywać kluczową rolę. W odcinku wprowadzającym, poznajemy charyzmatyczną panią prezydent elekt, która już na wejściu staje się jednym z głównych rozgrywających, w skomplikowanej partii szachów między politykami, agencjami rządowymi i wojskiem.

OBSADA:

Claire Danes - Carrie Mathison
Rupert Friend - Peter Quinn
Elizabeth Marvel - Elizabeth Keane
F. Murray Abraham - Dar Adal
Mandy Patinkin -Saul Berenson
Hill Harper - Rob Hemmis
Robert Knepper - Jamie McClendon
Dominic Fumusa - Ray Conlin
Patrick Sabongui - Reda Hashem

DANE:

Format : Matroska
Format version : Version 4 / Version 2
File size : 2.79 GiB
Duration : 52mn 7s
Overall bit rate : 7 671 Kbps
Encoded date : UTC 2017-01-06 15:27:50

Video
ID : 1
Format : AVC
Format/INFO : Advanced Video Codec
Format profile : High@L4.1
Format settings, CABAC : Yes
Format settings, ReFrames : 9 frames
Codec ID : V_MPEG4/ISO/AVC
Duration : 52mn 7s
Bit rate : 6 878 Kbps
Width : 1 280 pixels
Height : 720 pixels
Display aspect ratio : 16:9
Frame rate mode : Constant
Frame rate : 23.976 fps
Color space : YUV
Chroma subsampling : 4:2:0
Bit depth : 8 bits
Scan type : Progressive
Bits/(Pixel*Frame) : 0.311
Stream size : 2.50 GiB (90%)
Writing library : x264

Audio
ID : 2
Format : E-AC-3
Format/INFO : Audio Coding 3
Format settings, Endianness : Big
Codec ID : A_EAC3
Duration : 52mn 7s
Bit rate mode : Constant
Bit rate : 640 Kbps
Channel(s) : 6 channels
Channel positions : Front: L C R, Side: L R, LFE
Sampling rate : 48.0 KHz
Compression mode : Lossy
Stream size : 239 MiB (8%)
Language : English

Text
ID : 3
Format : UTF-8
Codec ID : S_TEXT/UTF8
Codec ID/INFO : UTF-8 Plain Text
Language : Polish

DETALE TORRENTA:[ Pokaż/Ukryj ]


wczytaj więcej torrentów
Copyright © 2015 All rights reserved Best-Torrents.net | Designed by Best-Torrents.net Torrenty są własnością użytkowników. Administrator serwisu nie może ponieść konsekwencji za to co użytkownicy wstawiają, lub za to co czynią na stronie. Nie możesz używać tego serwisu do rozpowszechniania lub ściągania materiałów do których nie masz odpowiednich praw lub licencji. Użytkownicy odpowiedzialni są za przestrzeganie tych zasad. PolicyDMCA