Assassins Creed (20...

[info] Tytuł: Assassins Creed ================== Ocena: IMDB - 6.2/10 (63532), Filmweb - 6.1/10 (25964) Produkcja: Francja, USA, Wielka Brytania Gatunek: Akcja, Przygodowy, Fantasy Czas trwania: 116 min. Premiera: 6 stycznia 2017 (Polska), 14 gr...

pobierz torrent
 

Łotr 1. Gwiezdne w...

[info] Tytuł: Rogue One: A Star Wars Story Polski Tytuł: Łotr 1. Gwiezdne wojny - historie ================== Ocena: IMDB - 8.1/10 (256648), Filmweb - 7.6/10 (81820) Produkcja: USA Gatunek: Akcja, Przygodowy, Sci-Fi Czas trwania: 133 min. Premie...

pobierz torrent
 

Monster Trucks (201...

Info: Reżyseria: Chris Wedge Scenariusz: Derek Connolly Gatunek: Przygodowy, Sci-Fi Kraj: USA Rok produkcji: 2016 Czas trwania: 104 min. Opis: Jedynym marzeniem Trippa (Lucas Till) jest ucieczka od codzienności i trudnych warunków, w jakich przys...

pobierz torrent
Gotham - Sezon 2 [720p.WEB-DL.H.264.AC3] [Lektor PL]

Gotham - Sezon 2 [720p.WEB-DL.H.264.AC3] [Lektor PL]


Kategoria: TV / SERIALE / ZAGRANICZNE

Zaakceptował: nie wymagał akceptacji
Liczba pobrań: 99
Ostatnia aktualizacja: 2017-01-08 22:37:13

Dodał: silver230 Data: 08-01-2017 Komentarze: 0
Rozmiar: 28.42 GB format: ZAGRANICZNE Seed: 1Peer: 25
Info Obsada Opis Szczegóły Media
INFO:

produkcja: USA
gatunek: Kryminał, Dramat
scenariusz: Bruno Heller, Bill Finger, Bob Kane
reżyseria: Danny Cannon, T.J. Scott, Eagle Egilsson
zdjęcia: Chris Norr, Crescenzo G.P. Notarile
muzyka: David E. Russo, Graeme Revell
czas trwania: ok. 42-44 min.

Uwaga! Początek każdego odcinka (tj. przypomnienie poprzednich odcinków) jest nietłumaczony przez lektora - wmuxowano napisy PL.

OPIS:

James Gordon jest synem byłego prokuratora okręgowego, a obecnie początkującym detektywem w policji miasta Gotham City, na czele której stoi kapitan Sara Essen. Zaręczony z Barbarą Kean policjant chce przywrócić miasto do czasów jakie znał z dzieciństwa. Zostaje on przydzielony do twardego i zuchwałego Harveya Bullocka. Obaj muszą rozwikłać sprawę, która wstrząsnęła miastem, jaką było brutalne morderstwo małżeństwa miejscowych milionerów, Thomasa i Marthy Wayne. Na miejscu zbrodni Gordon poznaje 12-letniego syna Wayne'ów, Bruce'a, który przeżył napad i był świadkiem całego zdarzenia. Młody detektyw nawiązuje więź z chłopcem i poruszony jego stratą przysięga, że odnajdzie sprawcę śmierci jego rodziców. Odtąd jedynym opiekunem Bruce'a zostaje lokaj rodziny Wayne'ów - Alfred, zaś Gordon balansując na granicy prawa musi stawić czoła szefowej gangu Fish Mooney. W trakcie śledztwa przyjdzie mu też spotkać szereg innych osób, które w przyszłości staną się superzłoczyńcami. Przyjaźń Gordona i osieroconego dziedzica fortuny Wayne'ów potrwa przez lata i będzie miała wpływ na decyzję chłopca o zostaniu mścicielem.

OBSADA:

Ben McKenzie - James Gordon
Donal Logue - Harvey Bullock
Robin Lord Taylor - Oswald Cobblepot
Erin Richards - Barbara Kean
Zabryna Guevara - Sarah Essen
Sean Pertwee - Alfred Pennyworth
Jada Pinkett Smith - Fish Mooney
David Mazouz - Bruce Wayne
Carmen Bicondova - Selina Kyle
Cory Michael Smith - Edward Nygma
Victoria Cartagena - Renee Montoya
Andrew Stewart Jones - Crispus Allen
David Zayas - Salvatore Maroni

DANE:

Format : Matroska
Format version : Version 4 / Version 2
File size : 1.31 GiB
Duration : 44mn 1s
Overall bit rate : 4 254 Kbps
Encoded date : UTC 2017-01-08 18:20:47

Video
ID : 1
Format : AVC
Format/INFO : Advanced Video Codec
Format profile : High@L3.1
Format settings, CABAC : No
Format settings, ReFrames : 2 frames
Codec ID : V_MPEG4/ISO/AVC
Duration : 44mn 1s
Bit rate : 3 946 Kbps
Width : 1 280 pixels
Height : 718 pixels
Display aspect ratio : 16:9
Frame rate mode : Constant
Frame rate : 23.976 fps
Color space : YUV
Chroma subsampling : 4:2:0
Bit depth : 8 bits
Scan type : Progressive
Bits/(Pixel*Frame) : 0.179
Stream size : 1.21 GiB (93%)
Color primaries : BT.709
Transfer characteristics : BT.709
Matrix coefficients : BT.709

Audio
ID : 2
Format : AC-3
Format/INFO : Audio Coding 3
Mode extension : CM (complete main)
Format settings, Endianness : Big
Codec ID : A_AC3
Duration : 44mn 1s
Bit rate mode : Constant
Bit rate : 224 Kbps
Channel(s) : 2 channels
Channel positions : Front: L R
Sampling rate : 48.0 KHz
Bit depth : 16 bits
Compression mode : Lossy
Stream size : 70.5 MiB (5%)
Language : Polish

DETALE TORRENTA:[ Pokaż/Ukryj ]


wczytaj więcej torrentów
Copyright © 2015 All rights reserved Best-Torrents.net | Designed by Best-Torrents.net Torrenty są własnością użytkowników. Administrator serwisu nie może ponieść konsekwencji za to co użytkownicy wstawiają, lub za to co czynią na stronie. Nie możesz używać tego serwisu do rozpowszechniania lub ściągania materiałów do których nie masz odpowiednich praw lub licencji. Użytkownicy odpowiedzialni są za przestrzeganie tych zasad. PolicyDMCA