Piekło / Inferno (...

[info] Tytuł: Inferno ================== Ocena: IMDB - 6.2/10 (64998), Filmweb - 6.3/10 (43340) Produkcja: Japonia, Turcja, USA, Węgry Gatunek: Thriller Czas trwania: 121 min. Premiera: 14 października 2016 (Polska), 12 października 2016 (świa...

pobierz torrent
 

Smoleńsk (2016) [P...

Info: Tytuł: Smoleńsk Ocena: IMDB - 1.1/10 (5242), Filmweb - 2.7/10 (17547) Produkcja: Polska Gatunek: Dramat Czas trwania: 115 min. Premiera: 09.09.2016 - Polska, 09.09.2016 - Świat Reżyseria: Antoni Krauze Scenariusz: Marcin Wolski, Maciej Paw...

pobierz torrent
 

Far Cry Primal - Ap...

Info: Ubisoft - producent Ubisoft - wydawca Ubisoft GmbH - wydawca PL Data premiery: 1 marca2016 - Świat 1 marca2016 - Polska Tryb gry: single player Gatunek: Akcji, FPP, sandbox, crafting, prehistoria. Opis: Far Cry Primal na komputerach...

pobierz torrent
Frequency S01E08-09 [720p.WEB-DL.H.264.AC3] [Lektor PL]

Frequency S01E08-09 [720p.WEB-DL.H.264.AC3] [Lektor PL]


Kategoria: TV / SERIALE / ZAGRANICZNE

Zaakceptował: nie wymagał akceptacji
Liczba pobrań: 67
Ostatnia aktualizacja: 2017-01-06 18:54:29

Dodał: silver230 Data: 06-01-2017 Komentarze: 0
Rozmiar: 2.56 GB format: ZAGRANICZNE Seed: 48Peer: 63
Info Obsada Opis Szczegóły Media
INFO:

produkcja: USA
gatunek: Fantasy, Dramat
reżyseria: Brad Anderson, Michael Fields, John T. Kretchmer
scenariusz: Jeremy Carver, Toby Emmerich, Nancy Won
zdjęcia: Kamal Derkaoui, Michael C. Blundell
muzyka: Toby Chu, Ben Decter
czas trwania: ok. 42 min.

OPIS:

Historia detektyw Raimy Sullivan i jej nieżyjącego od lat ojca. Po latach Raimy przypadkowo odkrywa, że za pomocą starej radiostacji, może się kontaktować z ojcem. Nieżyjący Frank znając przyszłość, pomaga córce w śledztwach. Niestety jedno z zadań kończy się poważnym zakłóceniem teraźniejszości. Do przywrócenia równowagi, jedyną drogą jest rozwikłanie tajemnicy pewnego morderstwa...

OBSADA:

Anthony Ruivivar - Stan Moreno
Mekhi Phifer - Satch Rayna
Peyton List - Raimy Sullivan
Riley Smith - Frank Sullivan
Devin Kelley - Julie Sullivan
Lenny Jacobson - Gordo
Daniel Bonjour - Daniel Lawrence
Rob Mayes - Kyle Mosbey

DANE:

Format : Matroska
Format version : Version 4 / Version 2
File size : 1.29 GiB
Duration : 42mn 21s
Overall bit rate : 4 349 Kbps
Encoded date : UTC 2017-01-06 12:31:03

Video
ID : 1
Format : AVC
Format/INFO : Advanced Video Codec
Format profile : High@L3.1
Format settings, CABAC : No
Format settings, ReFrames : 2 frames
Codec ID : V_MPEG4/ISO/AVC
Duration : 42mn 21s
Bit rate : 4 038 Kbps
Width : 1 280 pixels
Height : 718 pixels
Display aspect ratio : 16:9
Frame rate mode : Constant
Frame rate : 23.976 fps
Color space : YUV
Chroma subsampling : 4:2:0
Bit depth : 8 bits
Scan type : Progressive
Bits/(Pixel*Frame) : 0.183
Stream size : 1.19 GiB (93%)
Color primaries : BT.709
Transfer characteristics : BT.709
Matrix coefficients : BT.709

Audio
ID : 2
Format : AC-3
Format/INFO : Audio Coding 3
Mode extension : CM (complete main)
Format settings, Endianness : Big
Codec ID : A_AC3
Duration : 42mn 21s
Bit rate mode : Constant
Bit rate : 224 Kbps
Channel(s) : 2 channels
Channel positions : Front: L R
Sampling rate : 48.0 KHz
Bit depth : 16 bits
Compression mode : Lossy
Stream size : 67.9 MiB (5%)
Language : Polish

DETALE TORRENTA:[ Pokaż/Ukryj ]


wczytaj więcej torrentów
Copyright © 2015 All rights reserved Best-Torrents.net | Designed by Best-Torrents.net Torrenty są własnością użytkowników. Administrator serwisu nie może ponieść konsekwencji za to co użytkownicy wstawiają, lub za to co czynią na stronie. Nie możesz używać tego serwisu do rozpowszechniania lub ściągania materiałów do których nie masz odpowiednich praw lub licencji. Użytkownicy odpowiedzialni są za przestrzeganie tych zasad. PolicyDMCA