Underworld: Wojny k...

[info] Tytuł: Underworld: Blood Wars Polski Tytuł: Underworld: Wojny krwi ================== Ocena: IMDB - 6.4/10 (11364), Filmweb - 6.3/10 (4250) Produkcja: USA Gatunek: Horror, Akcja Czas trwania: 91 min. Premiera: 05.01.2017 - Świat Reżyse...

pobierz torrent
 

Wielki Mur / The Gr...

[info] Tytuł: The Great Wall Polski Tytuł: Wielki Mur ================== Ocena: IMDB - 6.3/10 (25282), Filmweb - 6.2/10 (6967) Produkcja: Chiny, USA Gatunek: Akcja, Przygodowy, Fantasy Czas trwania: 102 min. Premiera: 13.01.2017 - Polska, 16.12.20...

pobierz torrent
 

Łotr 1. Gwiezdne w...

[info] Tytuł: Rogue One: A Star Wars Story Polski Tytuł: Łotr 1. Gwiezdne wojny - historie ================== Ocena: IMDB - 8.1/10 (256648), Filmweb - 7.6/10 (81820) Produkcja: USA Gatunek: Akcja, Przygodowy, Sci-Fi Czas trwania: 133 min. Premie...

pobierz torrent
Designated Survivor S01E08 - The Results [1080p.WEB-DL.H.264.AC3] [Lektor PL] [ENG+Napisy PL]

Designated Survivor S01E08 - The Results [1080p.WEB-DL.H.264.AC3] [Lektor PL] [ENG+Napisy PL]


Kategoria: TV / SERIALE / ZAGRANICZNE

Zaakceptował: nie wymagał akceptacji
Liczba pobrań: 48
Ostatnia aktualizacja: 2016-12-26 00:01:03

Dodał: silver230 Data: 26-12-2016 Komentarze: 0
Rozmiar: 1.77 GB format: ZAGRANICZNE Seed: 29Peer: 25
Info Obsada Opis Szczegóły Media
INFO:

produkcja: USA
gatunek: Dramat, Thriller, Polityczny
reżyseria: Paul A. Edwards, Michael Katleman, Paul McGuigan
scenariusz: David Guggenheim, Jon Harmon Feldman, Michael Gunn
zdjęcia: Adam Suschitzky, Cort Fey, M. David Mullen
muzyka: Sean Callery, Robert Lydecker
czas trwania: ok. 43 min.

OPIS:

Trzymający w napięciu thriller polityczny. Po ataku terrorystycznym na waszyngtońskie elity losy Ameryki znajdują się w rękach nisko postawionego sekretarza gabinetu.

OBSADA:

Kiefer Sutherland - Tom Kirkman
Natascha McElhone - Alex Kirkman
Adan Canto - Aaron Shore
Italia Ricci - Emily Rhodes
LaMonica Garrett - Mike Ritter
Tanner Buchanan - Leo Kirkman
Kal Penn - Seth Wright
Maggie Q - Hannah Wells
Ashley Zukerman - Peter MacLeish

DANE:

Format : Matroska
Format version : Version 4 / Version 2
File size : 1.77 GiB
Duration : 41mn 38s
Overall bit rate : 6 078 Kbps
Encoded date : UTC 2016-12-25 13:50:25

Video
ID : 1
Format : AVC
Format/INFO : Advanced Video Codec
Format profile : High@L4.0
Format settings, CABAC : Yes
Format settings, ReFrames : 4 frames
Codec ID : V_MPEG4/ISO/AVC
Bit rate : 5 189 Kbps
Width : 1 920 pixels
Height : 1 080 pixels
Display aspect ratio : 16:9
Frame rate mode : Variable
Color space : YUV
Chroma subsampling : 4:2:0
Bit depth : 8 bits
Scan type : Progressive
Color primaries : BT.709
Transfer characteristics : BT.709
Matrix coefficients : BT.709

Audio 1
ID : 2
Format : AC-3
Format/INFO : Audio Coding 3
Mode extension : CM (complete main)
Format settings, Endianness : Big
Codec ID : A_AC3
Duration : 41mn 38s
Bit rate mode : Constant
Bit rate : 384 Kbps
Channel(s) : 2 channels
Channel positions : Front: L R
Sampling rate : 48.0 KHz
Bit depth : 16 bits
Compression mode : Lossy
Stream size : 114 MiB (6%)
Language : Polish
Default : Yes
Forced : No

Audio 2
ID : 3
Format : AC-3
Format/INFO : Audio Coding 3
Mode extension : CM (complete main)
Format settings, Endianness : Big
Codec ID : A_AC3
Duration : 41mn 38s
Bit rate mode : Constant
Bit rate : 384 Kbps
Channel(s) : 6 channels
Channel positions : Front: L C R, Side: L R, LFE
Sampling rate : 48.0 KHz
Bit depth : 16 bits
Compression mode : Lossy
Stream size : 114 MiB (6%)
Language : English
Default : No
Forced : No

Text 1
ID : 4
Format : UTF-8
Codec ID : S_TEXT/UTF8
Codec ID/INFO : UTF-8 Plain Text
Language : Polish
Default : Yes
Forced : No

Text 2
ID : 5
Format : UTF-8
Codec ID : S_TEXT/UTF8
Codec ID/INFO : UTF-8 Plain Text
Language : Polish
Default : No
Forced : No

DETALE TORRENTA:[ Pokaż/Ukryj ]


wczytaj więcej torrentów
Copyright © 2015 All rights reserved Best-Torrents.net | Designed by Best-Torrents.net Torrenty są własnością użytkowników. Administrator serwisu nie może ponieść konsekwencji za to co użytkownicy wstawiają, lub za to co czynią na stronie. Nie możesz używać tego serwisu do rozpowszechniania lub ściągania materiałów do których nie masz odpowiednich praw lub licencji. Użytkownicy odpowiedzialni są za przestrzeganie tych zasad. PolicyDMCA