Sprzymierzeni / All...

Info: Tytuł: Allied / Sprzymierzeni Ocena: IMDB - 7.2/10 (25650), Filmweb - 6.9/10 (9603) Produkcja: USA Gatunek: Melodramat Czas trwania: 100 min. Premiera: 25.11.2016 - Polska, 23.11.2016 - Świat Reżyseria: Robert Zemeckis Scenariusz: Steven Kn...

pobierz torrent
 

Assassin's Creed (2...

[info] Tytuł: Assassin's Creed ================== Ocena: IMDB - 6.3/10 (53130), Filmweb - 6.2/10 (20275) Produkcja: Francja, USA, Wielka Brytania Gatunek: Akcja, Przygodowy, Fanatsy Czas trwania: 114 min. Premiera: 06.01.2017 - Polska, 21.12.2016 - ...

pobierz torrent
 

Doktor Strange / Do...

Info: Tytuł: Doctor Strange / Doktor Strange Ocena: IMDB - 7.8/10 (191843), Filmweb - 7.6/10 (61772) Produkcja: USA Gatunek: Fantasy, Przygodowy Czas trwania: 130 min. Premiera: 26.10.2016 - Polska, 26.10.2016 - Świat Reżyseria: Scott Derrickson ...

pobierz torrent
Assassin's Creed (2016) [HDCAM.XviD-NAKRO] [ENG]

Assassin's Creed (2016) [HDCAM.XviD-NAKRO] [ENG]


Kategoria: FILMY / DIVX / XVID

Zaakceptował: nie wymagał akceptacji
Liczba pobrań: 445
Ostatnia aktualizacja: 0000-00-00 00:00:00

Dodał: TheCrow Data: 28-12-2016 Komentarze: 0
Rozmiar: 1.01 GB format: DIVX / XVID Seed: 2Peer: 28
Info Obsada Opis Szczegóły Media
Info:
Tytuł: Assassin's Creed
Ocena: IMDB - 6.8/10 (8498), Filmweb - 5.2/10 (96)

Produkcja: Francja, USA, Wielka Brytania
Gatunek: Przygodowy
Czas trwania: 100 min.
Premiera: 06.01.2017 - Polska, 21.12.2016 - Świat
Reżyseria: Justin Kurzel
Scenariusz: Michael Lesslie, Bill Collage, Adam Cooper

Aktorzy:
Michael Fassbender, Marion Cotillard, Jeremy Irons, Brendan Gleeson, Charlotte Rampling, Michael Kenneth Williams

OPIS: Dzięki przełomowej technologii Callum Lynch doświadcza przygód swojego przodka, asasyna Aguilara, żyjącego w XV-wiecznej Hiszpanii. Wkrótce podejmuje walkę z potężnymi templariuszami.

dane techniczne:
Video
ID : 0
Format : MPEG-4 Visual
Format profile : Advanced Simple@L4
Format settings, BVOP : 2
Format settings, QPel : No
Format settings, GMC : No warppoints
Format settings, Matrix : Default (H.263)
Codec ID : DIVX
Codec ID/Info : Project Mayo
Codec ID/Hint : DivX 4
Duration : 1 h 40 min
Bit rate : 1 290 kb/s
Width : 720 pixels
Height : 304 pixels
Display aspect ratio : 2.35:1
Frame rate : 30.303 FPS
Color space : YUV
Chroma subsampling : 4:2:0
Bit depth : 8 bits
Scan type : Progressive
Compression mode : Lossy
Bits/(Pixel*Frame) : 0.195
Stream size : 930 MiB (90%)
Writing library : XviD 64

Audio
ID : 1
Format : AAC
Language : English
Format/Info : Advanced Audio Codec
Format profile : LC
Codec ID : FF
Duration : 572 h
Source duration : 1 h 40 min
Bit rate : 128 kb/s
Channel(s) : 2 channels
Channel positions : Front: L R
Sampling rate : 48.0 kHz
Frame rate : 46.875 FPS (1024 spf)
Compression mode : Lossy
Stream size : 92.1 MiB (9%)
Alignment : Split accross interleaves
Interleave, duration : 21 ms (0.65 video frame)

DETALE TORRENTA:[ Pokaż/Ukryj ]


wczytaj więcej torrentów
Copyright © 2015 All rights reserved Best-Torrents.net | Designed by Best-Torrents.net Torrenty są własnością użytkowników. Administrator serwisu nie może ponieść konsekwencji za to co użytkownicy wstawiają, lub za to co czynią na stronie. Nie możesz używać tego serwisu do rozpowszechniania lub ściągania materiałów do których nie masz odpowiednich praw lub licencji. Użytkownicy odpowiedzialni są za przestrzeganie tych zasad. PolicyDMCA