Fantastyczne zwierz...

[info] Tytuł: Fantastic Beasts and Where to Find Them Polski Tytuł: Fantastyczne zwierzęta i jak je znaleźć ================== Ocena: IMDB - 7.6/10 (163520), Filmweb - 7.3/10 (77582) Produkcja: USA, Wielka Brytania Gatunek: Familijny, Fantasy, Pr...

pobierz torrent
 

VA - Hot Dance vol ...

[img]http://s18.postimg.org/5u338nybd/Information.gif[/img] Artist...............: VA Album................: Hot Dance vol.401 Genre................: Dance / Clab Source...............: CD Year.................: 2017 Ripper...............: Aladyn1111...

pobierz torrent
 

Sprzymierzeni / All...

Info: Tytuł: Allied / Sprzymierzeni Ocena: IMDB - 7.2/10 (25650), Filmweb - 6.9/10 (9603) Produkcja: USA Gatunek: Melodramat Czas trwania: 100 min. Premiera: 25.11.2016 - Polska, 23.11.2016 - Świat Reżyseria: Robert Zemeckis Scenariusz: Steven Kn...

pobierz torrent
Aftermath S01E13 - Whispers of Immortality [1080p.WEB-DL.H.264.DD5.1] [Napisy PL]

Aftermath S01E13 - Whispers of Immortality [1080p.WEB-DL.H.264.DD5.1] [Napisy PL]


Kategoria: TV / SERIALE / ZAGRANICZNE

Zaakceptował: nie wymagał akceptacji
Liczba pobrań: 57
Ostatnia aktualizacja: 2017-01-06 18:51:57

Dodał: silver230 Data: 06-01-2017 Komentarze: 0
Rozmiar: 1.67 GB format: ZAGRANICZNE Seed: 9Peer: 13
Info Obsada Opis Szczegóły Media
INFO:

produkcja: Kanada
gatunek: Sci-Fi
reżyseria: Jason Stone, Kaare Andrews, Leslie Hope
scenariusz: Glenn Davis, William Laurin, Philip Bedard
zdjęcia: Christopher C. Fisher, Jos Osman, Jan Wolff
dźwięk: Adam Stein, Shaun Gratto
czas trwania: ok. 41-43 min.

OPIS:

Rodzina Copelandów walczy o przetrwanie w świecie, w którym nastąpił apokaliptyczny upadek cywilizacji, spowodowany przez potężne burze, uderzenia meteorytów, trzęsienia ziemi, epidemie i ataki nadprzyrodzonych stworzeń.

OBSADA:

James Tupper - Joshua Copeland
Anne Heche - Karen Copeland
Levi Meaden - Matt Copeland
Taylor Hickson - Brianna Copeland
Julia Sarah Stone - Dana Copeland
Mitchell Kummen - Devyn
Sarah Dugdale - Sarah
Patti Kim - Tanisha
Madison Smith - Martin Winters
Sharon Taylor - Jane

DANE:

Format : Matroska
Format version : Version 4 / Version 2
File size : 1.67 GiB
Duration : 42mn 57s
Overall bit rate : 5 575 Kbps
Encoded date : UTC 2017-01-06 10:24:38

Video
ID : 1
Format : AVC
Format/INFO : Advanced Video Codec
Format profile : High@L4.0
Format settings, CABAC : Yes
Format settings, ReFrames : 4 frames
Codec ID : V_MPEG4/ISO/AVC
Duration : 42mn 57s
Bit rate : 5 080 Kbps
Width : 1 920 pixels
Height : 1 080 pixels
Display aspect ratio : 16:9
Frame rate mode : Constant
Frame rate : 23.976 fps
Color space : YUV
Chroma subsampling : 4:2:0
Bit depth : 8 bits
Scan type : Progressive
Bits/(Pixel*Frame) : 0.102
Stream size : 1.52 GiB (91%)
Color primaries : BT.709
Transfer characteristics : BT.709
Matrix coefficients : BT.709

Audio
ID : 2
Format : AC-3
Format/INFO : Audio Coding 3
Mode extension : CM (complete main)
Format settings, Endianness : Big
Codec ID : A_AC3
Duration : 42mn 57s
Bit rate mode : Constant
Bit rate : 384 Kbps
Channel(s) : 6 channels
Channel positions : Front: L C R, Side: L R, LFE
Sampling rate : 48.0 KHz
Bit depth : 16 bits
Compression mode : Lossy
Stream size : 118 MiB (7%)
Language : English

Text
ID : 3
Format : UTF-8
Codec ID : S_TEXT/UTF8
Codec ID/INFO : UTF-8 Plain Text
Language : Polish

DETALE TORRENTA:[ Pokaż/Ukryj ]


wczytaj więcej torrentów
Copyright © 2015 All rights reserved Best-Torrents.net | Designed by Best-Torrents.net Torrenty są własnością użytkowników. Administrator serwisu nie może ponieść konsekwencji za to co użytkownicy wstawiają, lub za to co czynią na stronie. Nie możesz używać tego serwisu do rozpowszechniania lub ściągania materiałów do których nie masz odpowiednich praw lub licencji. Użytkownicy odpowiedzialni są za przestrzeganie tych zasad. PolicyDMCA